osu file format v14

[General]
AudioFilename: Doxx & Feint - Mind in motion.mp3
AudioLeadIn: 1500
PreviewTime: 97198
Countdown: 0
SampleSet: Normal
StackLeniency: 0.7
Mode: 0
LetterboxInBreaks: 1
WidescreenStoryboard: 0

[Editor]
Bookmarks: 42908,54028,67511,85882
DistanceSpacing: 0.9
BeatDivisor: 4
GridSize: 4
TimelineZoom: 2.1

[Metadata]
Title:Mind In Motion
TitleUnicode:Mind In Motion
Artist:Doxx & Feint
ArtistUnicode:Doxx & Feint
Creator:Secretpipe
Version:Normal
Source:
Tags:liquid dnb drum and bass lanturn moway galvenize
BeatmapID:538364
BeatmapSetID:222565

[Difficulty]
HPDrainRate:4
CircleSize:4
OverallDifficulty:4
ApproachRate:5
SliderMultiplier:1.1
SliderTickRate:1

[Events]
//Background and Video events
0,0,"MIM.jpg",0,0
//Break Periods
//Storyboard Layer 0 (Background)
//Storyboard Layer 1 (Fail)
//Storyboard Layer 2 (Pass)
//Storyboard Layer 3 (Foreground)
//Storyboard Sound Samples
//Background Colour Transformations
3,100,163,162,255

[TimingPoints]
120,337.078651685393,4,2,0,50,1,0
75625,-95.2380952380952,4,2,0,50,0,0
97198,-100,4,1,0,50,0,1
140344,-100,4,1,0,50,0,0

[Colours]
Combo1 : 17,254,176
Combo2 : 173,255,95
Combo3 : 255,88,100
Combo4 : 255,94,55

[HitObjects]
316,324,43266,6,0,B|371:346|431:325|463:281,1,165,0|0,0:0|0:0,0:0:0:0:
492,136,44277,2,0,B|437:114|377:135|345:179,1,165,0|0,0:0|0:0,0:0:0:0:
216,252,45288,2,0,L|161:244,1,55,0|0,0:0|0:0,0:0:0:0:
44,156,45962,6,0,B|0:240|40:320,2,165,0|0|0,0:0|0:0|0:0,0:0:0:0:
168,76,47479,2,0,B|228:68|264:24|264:24|292:36|304:64,1,165,0|0,0:0|0:0,0:0:0:0:
308,108,48153,1,0,0:0:0:0:
220,228,48659,5,0,0:0:0:0:
308,348,49164,2,0,B|365:365|423:332|440:277,1,165,0|0,0:0|0:0,0:0:0:0:
388,140,50176,2,0,B|372:12|372:12|408:28,1,165,0|0,0:0|0:0,0:0:0:0:
448,52,50850,1,0,0:0:0:0:
304,100,51355,6,0,B|196:124|196:124|144:108,1,165,0|0,0:0|0:0,0:0:0:0:
24,200,52367,2,0,L|184:252,1,165,0|0,0:0|0:0,0:0:0:0:
324,288,53378,1,0,0:0:0:0:
324,288,53546,1,0,0:0:0:0:
292,148,54052,5,0,0:0:0:0:
168,64,54558,2,0,B|80:36|80:92|-4:60,2,165,0|0|0,0:0|0:0|0:0,0:0:0:0:
316,88,56075,1,0,0:0:0:0:
316,88,56243,1,0,0:0:0:0:
440,168,56749,6,0,B|472:201|470:255|434:288|393:291,1,165,0|0,0:0|0:0,0:0:0:0:
244,288,57760,2,0,B|198:286|163:245|167:196|195:166,1,165,0|0,0:0|0:0,0:0:0:0:
316,88,58771,1,0,0:0:0:0:
316,88,58940,1,0,0:0:0:0:
348,236,59445,6,0,B|409:231|463:210|509:177,2,165,0|0|0,0:0|0:0|0:0,0:0:0:0:
204,276,60962,1,0,0:0:0:0:
84,188,61468,2,0,L|36:144,1,55,0|0,0:0|0:0,0:0:0:0:
136,36,62142,6,0,L|265:138,1,165,0|0,0:0|0:0,0:0:0:0:
332,272,63153,2,0,B|384:270|425:230|430:177|409:138,1,165,0|0,0:0|0:0,0:0:0:0:
324,36,64164,1,0,0:0:0:0:
324,36,64333,1,0,0:0:0:0:
180,68,64839,6,0,B|214:115|211:177|178:220,1,165,0|0,0:0|0:0,0:0:0:0:
108,352,65850,2,0,B|158:383|219:375|260:341,1,165,0|0,0:0|0:0,0:0:0:0:
412,336,66861,1,0,0:0:0:0:
412,336,67030,1,0,0:0:0:0:
348,204,67535,6,0,B|314:157|317:95|350:52,2,165,0|0|0,0:0|0:0|0:0,0:0:0:0:
444,316,69052,1,0,0:0:0:0:
320,380,69558,2,0,B|307:366|299:349|296:331,1,55,0|0,0:0|0:0,0:0:0:0:
202,216,70232,5,0,0:0:0:0:
134,84,70737,1,0,0:0:0:0:
284,104,71243,2,0,B|368:76|368:132|452:92,2,165,0|0|0,0:0|0:0|0:0,0:0:0:0:
240,124,72423,1,0,0:0:0:0:
108,192,72928,6,0,B|102:250|102:250|110:290|110:290|104:358,2,165,0|0|0,0:0|0:0|0:0,0:0:0:0:
120,44,74445,1,0,0:0:0:0:
264,76,74951,2,0,L|272:136,1,55,0|0,0:0|0:0,0:0:0:0:
280,288,75625,6,0,B|223:317|157:307|112:269,2,173.24999471283,2|2|2,1:2|0:0|0:0,0:0:0:0:
384,276,76973,2,0,L|416:348,2,57.7499982376099,0|2|0,0:0|0:0|1:0,0:0:0:0:
460,204,77648,2,0,L|516:236,2,57.7499982376099,2|2|0,1:2|0:0|0:0,0:0:0:0:
360,172,78322,6,0,B|323:148|277:152|245:176,1,115.49999647522,2|0,1:2|0:0,0:0:0:0:
188,256,78996,1,0,1:0:0:0:
188,256,79333,2,0,B|225:280|271:276|303:252,2,115.49999647522,2|0|0,0:0|0:0|1:0,0:0:0:0:
92,220,80344,2,0,B|84:256|92:292,2,57.7499982376099,2|2|0,1:2|0:0|0:0,0:0:0:0:
124,120,81018,6,0,B|184:138|245:122|287:84,1,173.24999471283,2|2,1:2|0:0,0:0:0:0:
352,228,82030,2,0,B|306:269|245:280|191:263,2,173.24999471283,2|2|2,0:0|0:0|1:2,0:0:0:0:
392,192,83209,1,2,0:0:0:0:
468,56,83715,5,0,1:0:0:0:
312,76,84221,1,0,0:0:0:0:
236,212,84726,1,0,0:0:0:0:
392,192,85232,1,0,0:0:0:0:
312,76,85737,2,0,B|285:69|259:71|235:80,1,57.7499982376099,2|2,1:2|0:0,0:0:0:0:
108,124,86412,6,0,B|72:180|83:251|127:295,1,173.24999471283,,,0:0:0:0:
252,200,87423,1,0,0:0:0:0:
320,124,87760,2,0,B|356:180|345:251|301:295,2,173.24999471283,0|0|0,0:0|0:0|0:0,0:0:0:0:
224,88,89108,6,0,B|136:60|136:116|52:84,2,173.24999471283,0|0|0,0:0|0:0|0:0,0:0:0:0:
320,124,90457,2,0,L|324:248,1,115.49999647522,,,0:0:0:0:
240,304,91131,2,0,L|236:188,1,115.49999647522,,,0:0:0:0:
224,84,91805,6,0,B|172:86|129:124|118:175|134:218,2,173.24999471283,0|0|0,0:0|0:0|0:0,0:0:0:0:
328,80,93153,2,0,L|452:76,1,115.49999647522,,,0:0:0:0:
484,172,93827,2,0,L|368:175,1,115.49999647522,,,0:0:0:0:
256,192,94502,12,0,96524,0:0:0:0:
255,192,97198,6,0,B|289:169|333:170|364:192,1,110,4|8,1:0|1:2,0:0:0:0:
416,271,97872,2,0,B|382:294|338:293|307:271,1,110,0|8,0:0|1:2,0:0:0:0:
212,280,98546,2,0,B|160:307|100:303|55:274,2,165,0|0|8,1:0|1:0|1:2,0:0:0:0:
307,272,99895,5,4,1:0:0:0:
392,220,100232,2,0,B|404:201|411:180|412:159,1,55,8|0,1:2|0:0,0:0:0:0:
312,176,100737,2,0,B|294:138|292:96,1,55,0|8,0:0|1:2,0:0:0:0:
232,48,101243,2,0,B|180:20|120:24|75:53,2,165,0|0|8,1:0|1:0|1:2,0:0:0:0:
299,120,102591,6,0,B|379:128|379:128|471:104,1,165,4|0,1:0|0:0,0:0:0:0:
469,255,103603,2,0,B|387:276|387:276|307:268,1,165,8|0,1:2|0:0,0:0:0:0:
159,252,104614,1,0,0:0:0:0:
159,252,104782,1,0,1:0:0:0:
251,135,105288,6,0,B|283:91|341:78|391:102|415:142,2,165,4|0|8,1:0|0:0|1:2,0:0:0:0:
175,199,106636,2,0,B|150:195|128:183|111:167,2,55,0|0|8,1:0|0:0|1:2,0:0:0:0:
256,256,107311,2,0,B|281:252|303:240|320:224,2,55,0|0|8,0:0|1:0|1:2,0:0:0:0:
237,353,107985,6,0,B|301:341|357:312|401:271,1,165,4|0,1:0|0:0,0:0:0:0:
495,185,108996,1,10,1:2:0:0:
429,111,109333,2,0,L|316:103,1,110,2|10,1:2|1:2,0:0:0:0:
299,200,110007,2,0,L|186:192,1,110,0|10,0:0|1:2,0:0:0:0:
90,192,110681,6,0,B|89:245|125:290|177:302|221:288,1,165,4|0,1:0|0:0,0:0:0:0:
333,351,111693,1,10,1:2:0:0:
412,292,112030,2,0,B|430:311|434:338|427:361,2,55,2|0|10,1:2|0:0|1:2,0:0:0:0:
404,192,112704,2,0,B|423:191|441:198|454:210,2,55,2|0|10,1:3|0:0|1:3,0:0:0:0:
304,204,113378,5,4,1:0:0:0:
264,112,113715,2,0,B|211:83|150:88|105:119,1,165,8|0,1:2|0:0,0:0:0:0:
72,152,114389,1,10,1:2:0:0:
16,234,114726,2,0,B|56:256|101:251|135:228,1,110,2|10,1:2|1:2,0:0:0:0:
215,204,115400,2,0,B|250:186|289:189|320:206,1,110,0|10,0:0|1:2,0:0:0:0:
411,246,116075,6,0,B|466:215|488:151|468:95,2,165,4|0|8,1:0|0:0|1:2,0:0:0:0:
340,314,117423,2,0,B|349:340|368:360,2,55,0|0|8,1:0|0:0|1:2,0:0:0:0:
246,281,118097,2,0,B|241:300|242:319|247:336,2,55,0|0|8,0:0|1:0|1:2,0:0:0:0:
234,182,118771,6,0,B|185:141|121:135|68:158,2,165,4|0|8,1:0|0:0|1:2,0:0:0:0:
310,244,120119,1,0,1:0:0:0:
310,244,120457,1,8,1:2:0:0:
310,244,120794,2,0,B|353:259|398:254|434:234,1,110,0|8,0:0|1:2,0:0:0:0:
436,149,121468,6,0,B|380:177|317:173|266:145,1,165,4|0,1:0|0:0,0:0:0:0:
146,76,122479,1,8,1:2:0:0:
70,140,122816,2,0,L|24:248,1,110,0|8,1:0|1:2,0:0:0:0:
106,301,123490,2,0,L|148:199,1,110,0|8,0:0|1:2,0:0:0:0:
226,138,124164,5,4,1:0:0:0:
324,148,124502,2,0,B|319:176|303:199,1,55,8|0,1:2|0:0,0:0:0:0:
226,261,125007,2,0,B|214:276|207:294|205:312,1,55,0|8,0:0|1:2,0:0:0:0:
107,327,125513,2,0,B|119:242|170:172,1,165,0|0,1:0|1:0,0:0:0:0:
234,101,126355,1,0,1:0:0:0:
234,101,126524,1,8,1:2:0:0:
327,66,126861,5,4,1:0:0:0:
311,163,127198,2,0,B|299:198|295:233,1,55,8|0,1:2|0:0,0:0:0:0:
198,212,127704,2,0,B|211:246|214:282,1,55,0|8,0:0|1:2,0:0:0:0:
128,318,128209,2,0,L|298:324,1,165,0|0,1:0|1:0,0:0:0:0:
392,329,129052,1,0,1:0:0:0:
392,329,129221,1,8,1:2:0:0:
348,240,129558,6,0,B|320:152|376:152|344:68,1,165,4|0,1:0|0:0,0:0:0:0:
204,120,130569,2,0,B|173:170|112:188|61:166,2,165,10|0|0,1:2|0:0|0:0,0:0:0:0:
240,84,131749,1,2,1:2:0:0:
252,232,132254,6,0,B|265:277|306:306|352:308|387:288,1,165,4|0,1:0|0:0,0:0:0:0:
344,200,133097,1,0,0:0:0:0:
344,200,133266,2,0,B|340:92|340:92|296:44,2,165,10|0|0,1:2|0:0|0:0,0:0:0:0:
340,248,134445,2,0,B|312:251|289:266|276:288,1,55,2|10,1:2|1:2,0:0:0:0:
208,324,134951,6,0,B|157:294|100:281|46:284,1,165,4|0,1:0|0:0,0:0:0:0:
184,220,135962,2,0,B|225:197|240:146|221:102|185:81,1,165,10|0,1:2|0:0,0:0:0:0:
144,64,136636,1,10,1:2:0:0:
44,68,136973,2,0,L|20:0,2,55,0|2|10,0:0|1:2|1:2,0:0:0:0:
92,156,137648,6,0,B|118:218|112:284,1,110,4|8,1:0|1:2,0:0:0:0:
112,312,138153,1,0,0:0:0:0:
188,372,138490,2,0,B|228:366|264:348,1,55,0|8,0:0|1:2,0:0:0:0:
256,192,138996,12,4,140344,0:0:0:0:
